Loading...
Error

Замена / The Substitute (Роберт Мэндел) [1996, боевик, триллер, драма, криминал, BDRip 1080p] MVO (R5) + DVO (СТС) + 2xAVO (Гаврилов, Сонькин) + Original + Sub (Rus/Eng)

Статистика раздачи
Размер:  9,92 GB   |    Зарегистрирован:  1 месяц 17 дней   |    Скачан:  9 раз

Полного источника не было: 19 дней

Сидов:  0  |  0 KB/s  ]   Личеров:  0  |  0 KB/s  ]

* - сиды/пиры с внешних источников

   
 
Автор Сообщение

Konin Пол:Муж

31-Июл-2021 21:11

Замена / The Substitute

Год выхода: 1996
Страна: США
Студия: Dinamo Entertainment, H2 Productions, Live Entertainment
Жанр: боевик, триллер, драма, криминал
Продолжительность: 01:55:03
Перевод #1: Профессиональный (многоголосный, закадровый) R5
Перевод #2: Профессиональный (двухголосый, закадровый) СТС
Перевод #3: Авторский (одноголосый, закадровый) Гаврилов Андрей Юрьевич
Перевод #4: Авторский (одноголосый, закадровый) Сонькин Владимир
Режиссер:
Роберт Мэндел
В ролях:
Том Беренджер, Марк Энтони, Рэймонд Крус, Уильям Форсайт, Луис Гузман, Ричард Брукс, Дайан Венора, Гленн Пламмер, Шэррон Корли, Винсент Лареска...
О фильме:
«Солдат Удачи» Шейл, уволенный из ЦРУ, выходит на временную работу вместо своей подруги Джейн, учительницы одной из средних школ Майами. Здесь он узнает о существовании банды «К. Р.» («Короли Разрушения»), процветающей за счет наркобизнеса. Чтобы разобраться с мафией, Шейл обращается за помощью к своим друзьям-наемникам…

Качество: BDRip 1080p
Формат: MKV
Видео: MPEG-4 AVC, 1920x1036, 11000 kbps, 23,976 fps
Аудио #01: 48 kHz, AC3, 5.1, 384 Kbps | Многоголосый | R5 | RUS |
Аудио #02: 48 kHz, AC3, 2.0, 192 Kbps | Двухголосый | СТС| RUS |
Аудио #03: 48 kHz, AC3, 2.0, 192 Kbps | Авторский | Гаврилов | RUS |
Аудио #04: 48 kHz, AC3, 1.0, 192 Kbps | Авторский | Сонькин | RUS |
Аудио #05: 48 kHz, AC3, 5.1, 384 Kbps | Оригинал | ENG |
Субтитры: Русские, Английские
x264 [info]: frame I:1143 Avg QP:18.50 size:203368
x264 [info]: frame P:33933 Avg QP:21.32 size:100612
x264 [info]: frame B:130429 Avg QP:23.25 size: 44795
x264 [info]: consecutive B-frames: 1.6% 2.1% 6.2% 16.5% 15.4% 46.1% 8.2% 0.9% 2.3% 0.4% 0.4%
Общее
Уникальный идентификатор : 230363180101556852147334028615642913133 (0xAD4E55AC8D553BA48C9DE957D322196D)
Полное имя : Замена (The Substitute) 1996 BDRip 1080p.mkv
Формат : Matroska
Версия формата : Version 2
Размер файла : 9,92 Гбайт
Продолжительность : 1 ч. 55 м.
Общий поток : 12,3 Мбит/сек
Дата кодирования : UTC 2015-11-16 05:55:49
Программа кодирования : mkvmerge v4.0.0 ('The Stars were mine') сборка от Jun 6 2010 16:18:42
Библиотека кодирования : libebml v1.0.0 + libmatroska v1.0.0
Видео
Идентификатор : 1
Формат : AVC
Формат/Информация : Advanced Video Codec
Профиль формата : High@L4.1
Параметр CABAC формата : Да
Параметр ReFrames формата : 4 кадра
Идентификатор кодека : V_MPEG4/ISO/AVC
Продолжительность : 1 ч. 55 м.
Битрейт : 11,0 Мбит/сек
Ширина : 1920 пикселей
Высота : 1036 пикселей
Соотношение сторон : 1,85:1
Режим частоты кадров : Постоянный
Частота кадров : 23,976 кадра/сек
Цветовое пространство : YUV
Субдискретизация насыщенности : 4:2:0
Битовая глубина : 8 бит
Тип развёртки : Прогрессивная
Бит/(Пиксели*Кадры) : 0.231
Размер потока : 8,64 Гбайт (87%)
Библиотека кодирования : x264 core 146 r2538 121396c
Настройки программы : cabac=1 / ref=4 / deblock=1:-3:-3 / analyse=0x3:0x133 / me=umh / subme=11 / psy=1 / psy_rd=1.00:0.00 / mixed_ref=1 / me_range=32 / chroma_me=1 / trellis=2 / 8x8dct=1 / cqm=0 / deadzone=21,11 / fast_pskip=1 / chroma_qp_offset=-4 / threads=12 / lookahead_threads=2 / sliced_threads=0 / nr=0 / decimate=0 / interlaced=0 / bluray_compat=0 / constrained_intra=0 / bframes=10 / b_pyramid=2 / b_adapt=2 / b_bias=0 / direct=3 / weightb=1 / open_gop=0 / weightp=2 / keyint=240 / keyint_min=23 / scenecut=40 / intra_refresh=0 / rc_lookahead=60 / rc=2pass / mbtree=0 / bitrate=11000 / ratetol=1.0 / qcomp=0.60 / qpmin=0 / qpmax=69 / qpstep=4 / cplxblur=20.0 / qblur=0.5 / vbv_maxrate=50000 / vbv_bufsize=62500 / nal_hrd=none / filler=0 / ip_ratio=1.40 / pb_ratio=1.30 / aq=1:0.80
Язык : English
Default : Нет
Forced : Нет
Аудио #1
Идентификатор : 2
Формат : AC-3
Формат/Информация : Audio Coding 3
Расширение режима : CM (complete main)
Параметр Endianness формата : Big
Идентификатор кодека : A_AC3
Продолжительность : 1 ч. 55 м.
Вид битрейта : Постоянный
Битрейт : 384 Кбит/сек
Каналы : 6 каналов
Расположение каналов : Front: L C R, Side: L R, LFE
Частота : 48,0 КГц
Метод сжатия : С потерями
Размер потока : 316 Мбайт (3%)
Заголовок : MVO R5 Twister
Язык : Russian
Default : Нет
Forced : Нет
Аудио #2
Идентификатор : 3
Формат : AC-3
Формат/Информация : Audio Coding 3
Расширение режима : CM (complete main)
Параметр Endianness формата : Big
Идентификатор кодека : A_AC3
Продолжительность : 1 ч. 55 м.
Вид битрейта : Постоянный
Битрейт : 192 Кбит/сек
Каналы : 2 канала
Расположение каналов : Front: L R
Частота : 48,0 КГц
Метод сжатия : С потерями
Размер потока : 158 Мбайт (2%)
Заголовок : DVO СТС
Язык : Russian
Default : Нет
Forced : Нет
Аудио #3
Идентификатор : 4
Формат : AC-3
Формат/Информация : Audio Coding 3
Расширение режима : CM (complete main)
Параметр Endianness формата : Big
Идентификатор кодека : A_AC3
Продолжительность : 1 ч. 55 м.
Вид битрейта : Постоянный
Битрейт : 192 Кбит/сек
Каналы : 2 канала
Расположение каналов : Front: L R
Частота : 48,0 КГц
Метод сжатия : С потерями
Размер потока : 158 Мбайт (2%)
Заголовок : AVO Гаврилов Андрей Юрьевич
Язык : Russian
Default : Нет
Forced : Нет
Аудио #4
Идентификатор : 5
Формат : AC-3
Формат/Информация : Audio Coding 3
Расширение режима : CM (complete main)
Параметр Endianness формата : Big
Идентификатор кодека : A_AC3
Продолжительность : 1 ч. 55 м.
Вид битрейта : Постоянный
Битрейт : 192 Кбит/сек
Каналы : 1 канал
Расположение каналов : Front: C
Частота : 48,0 КГц
Метод сжатия : С потерями
Размер потока : 158 Мбайт (2%)
Заголовок : AVO Сонькин Владимир
Язык : Russian
Default : Нет
Forced : Нет
Аудио #5
Идентификатор : 6
Формат : AC-3
Формат/Информация : Audio Coding 3
Расширение режима : CM (complete main)
Параметр Endianness формата : Big
Идентификатор кодека : A_AC3
Продолжительность : 1 ч. 55 м.
Вид битрейта : Постоянный
Битрейт : 384 Кбит/сек
Каналы : 6 каналов
Расположение каналов : Front: L C R, Side: L R, LFE
Частота : 48,0 КГц
Метод сжатия : С потерями
Размер потока : 316 Мбайт (3%)
Язык : English
Default : Нет
Forced : Нет
Текст #1
Идентификатор : 7
Формат : UTF-8
Идентификатор кодека : S_TEXT/UTF8
Идентификатор кодека/Информация : UTF-8 Plain Text
Язык : Russian
Default : Нет
Forced : Нет
Текст #2
Идентификатор : 8
Формат : UTF-8
Идентификатор кодека : S_TEXT/UTF8
Идентификатор кодека/Информация : UTF-8 Plain Text
Язык : English
Default : Нет
Forced : Нет

Этот торрент недоступен для скачивания без регистрации, однако доступен по публичной magnet-ссылке (источники с публичных трекеров). Перед использованием ссылки прочтите, пожалуйста Пользовательское соглашение, а также как можно дольше оставайтесь на раздаче! Для того, чтобы скачать сам торрент-файл (который видит больше источников), а также для того, чтобы поблагодарить релизера, вам необходимо зарегистрироваться. Если регистрироваться лень - вы можете также попробовать скачать релиз по нашим партнерским ссылкам ниже. Кроме того, зарегистрированным пользователям не показывается всплывающая реклама при скачивании.

[underver.se].t216187.torrent
Трекер: Зарегистрирован   [ 31.07.2021 21:11 ]  

Статус: проверено (by Robbertta at 01.08.2021 05:20)
Поблагодарили: пока никто не поблагодарил...
Тип торрента: публичный - доступные источники с открытых трекеров: 
Размер: 9,92 GB (занимает 2,27 DVDR, для записи нужно 3 болванки DVDR/RW)
 
 

Яндекс.Метрика powered by Sphinx


В Н И М А Н И Е
Сайт не распространяет и не хранит электронные версии произведений, а лишь бесплатно и без коммерческой выгоды (не требуя взамен платы,
SMS и т.д.) предоставляет доступ к создаваемому пользователями каталогу ссылок на торрент-файлы, которые содержат только списки хеш-сумм.
Убедительная просьба с жалобами обращаться напрямую к пользователю, разместившему торрент файл.

Вверх